<?xml version="1.0" standalone="no"?>
<!DOCTYPE svg PUBLIC "-//W3C//DTD SVG 1.1//EN" "http://www.w3.org/Graphics/SVG/1.1/DTD/svg11.dtd" >
<svg xmlns="http://www.w3.org/2000/svg" xmlns:xlink="http://www.w3.org/1999/xlink" version="1.1">
<metadata>
Created by FontForge 20201107 at Wed Aug  4 12:36:51 2021
 By Robert Madole
Copyright (c) Font Awesome
</metadata>
<!-- Font Awesome Pro 5.15.4 by @fontawesome - https://fontawesome.com License - https://fontawesome.com/license (Commercial License) --><defs>
<font id="FontAwesome5Pro-Regular" horiz-adv-x="640" >
  <font-face 
    font-family="Font Awesome 5 Pro Regular"
    font-weight="400"
    font-stretch="normal"
    units-per-em="512"
    panose-1="2 0 5 3 0 0 0 0 0 0"
    ascent="448"
    descent="-64"
    bbox="-0.000244141 -64.0124 640 448.1"
    underline-thickness="25"
    underline-position="-50"
    unicode-range="U+0020-F8FF"
  />
    <missing-glyph />
    <glyph glyph-name="user" unicode="&#xf007;" horiz-adv-x="448" 
d="M313.6 144c74.2002 0 134.4 -60.2002 134.4 -134.4v-25.5996c0 -26.5 -21.5 -48 -48 -48h-352c-26.5 0 -48 21.5 -48 48v25.5996c0 74.2002 60.2002 134.4 134.4 134.4c28.7998 0 42.5 -16 89.5996 -16s60.9004 16 89.5996 16zM400 -16v25.5996
c0 47.6006 -38.7998 86.4004 -86.4004 86.4004c-14.6992 0 -37.8994 -16 -89.5996 -16c-51.2998 0 -75 16 -89.5996 16c-47.6006 0 -86.4004 -38.7998 -86.4004 -86.4004v-25.5996h352zM224 160c-79.5 0 -144 64.5 -144 144s64.5 144 144 144s144 -64.5 144 -144
s-64.5 -144 -144 -144zM224 400c-52.9004 0 -96 -43.0996 -96 -96s43.0996 -96 96 -96s96 43.0996 96 96s-43.0996 96 -96 96z" />
    <glyph glyph-name="users" unicode="&#xf0c0;" 
d="M544 224c-44.2002 0 -80 35.7998 -80 80s35.7998 80 80 80s80 -35.7998 80 -80s-35.7998 -80 -80 -80zM544 336c-17.5996 0 -32 -14.4004 -32 -32s14.4004 -32 32 -32s32 14.4004 32 32s-14.4004 32 -32 32zM96 224c-44.2002 0 -80 35.7998 -80 80s35.7998 80 80 80
s80 -35.7998 80 -80s-35.7998 -80 -80 -80zM96 336c-17.5996 0 -32 -14.4004 -32 -32s14.4004 -32 32 -32s32 14.4004 32 32s-14.4004 32 -32 32zM492.4 125.1c12.3994 -18.3994 19.5996 -40.5 19.3994 -64.2998v-44.7998c0 -26.5 -21.5 -48 -48 -48h-288
c-26.5 0 -48 21.5 -48 48v44.7998c0 23.7998 7.2002 45.9004 19.6006 64.2998c27.5 40.9004 80.6992 56 127.8 41.7002c14.2002 -4.2998 29.0996 -6.7002 44.7002 -6.7002c15.5996 0 30.5 2.40039 44.6992 6.7002c47.1006 14.2998 100.301 -0.899414 127.801 -41.7002z
M464 16v44.7998c0 36.5 -29.2002 66.2002 -65.4004 67.2002c-25.5 -10.5996 -51.8994 -16 -78.5996 -16s-53.0996 5.40039 -78.5996 16c-36.2002 -1 -65.4004 -30.7998 -65.4004 -67.2002v-44.7998h288zM556 192c46.2998 0 84 -37.7002 83.9004 -84
c0 -13.2002 -10.8008 -24 -24 -24c-13.2002 0 -24 10.7998 -24 24c0 19.7998 -16.2002 36 -36 36h-24c-4.30078 0 -8.40039 -1.09961 -12.3008 -2.5c-9.19922 14 -21 26.0996 -34.3994 36.2002c13.3994 9 29.5 14.2998 46.7998 14.2998h24zM320 192
c-61.9004 0 -112 50.0996 -112 112s50.0996 112 112 112s112 -50.0996 112 -112s-50.0996 -112 -112 -112zM320 368c-35.2998 0 -64 -28.7002 -64 -64s28.7002 -64 64 -64s64 28.7002 64 64s-28.7002 64 -64 64zM154.8 177.7
c-13.3994 -10.1006 -25.2002 -22.2002 -34.5 -36.2002c-3.7998 1.40039 -7.89941 2.5 -12.2998 2.5h-24c-19.7998 0 -36 -16.2002 -36 -36c0 -13.2002 -10.7998 -24 -24 -24s-24 10.7998 -24 24c0 46.2998 37.7002 84 84 84h24c17.2998 0 33.4004 -5.2998 46.7998 -14.2998z
" />
    <glyph glyph-name="cloud" unicode="&#xf0c2;" 
d="M543.7 247.9c57.0996 -20.1006 96.2998 -74.1006 96.2998 -135.9c0 -79.5 -64.5 -144 -144 -144h-336c-88.4004 0 -160 71.5996 -160 160c0 65.5996 39.9004 123.9 99.7002 148.2c16.7998 80.0996 87.7002 139.8 172.3 139.8c56.0996 0 105.7 -26.2998 137.6 -66.2998
c7.30078 1.5 14.8008 2.2998 22.4004 2.2998c59.4004 0 107.7 -46.0996 111.7 -104.1zM496 16c53 0 96 43 96 96s-43 96 -96 96c-2.90039 0 -5.90039 -0.0996094 -8.7998 -0.400391c5.59961 9.5 8.7998 20.6006 8.7998 32.4004c0 35.2998 -28.7002 64 -64 64
c-15.9004 0 -30.4004 -5.7998 -41.5996 -15.4004c-19.1006 46.6006 -64.9004 79.4004 -118.4 79.4004c-70.7002 0 -128 -57.2998 -128 -128v-1.09961c-54.2998 -7.80078 -96 -54.5 -96 -110.9c0 -61.9004 50.0996 -112 112 -112h336z" />
    <glyph glyph-name="cloud-download" unicode="&#xf0ed;" 
d="M543.7 247.9c57.0996 -20.1006 96.2998 -74.1006 96.2998 -135.9c0 -79.5 -64.5 -144 -144 -144h-336c-88.4004 0 -160 71.5996 -160 160c0 65.5996 39.9004 123.9 99.7002 148.2c16.7998 80.0996 87.7002 139.8 172.3 139.8c56.0996 0 105.7 -26.2998 137.6 -66.2998
c7.30078 1.5 14.8008 2.2998 22.4004 2.2998c59.4004 0 107.7 -46.0996 111.7 -104.1zM496 16c53 0 96 43 96 96s-43 96 -96 96c-2.90039 0 -5.90039 -0.0996094 -8.7998 -0.400391c5.59961 9.5 8.7998 20.6006 8.7998 32.4004c0 35.2998 -28.7002 64 -64 64
c-15.9004 0 -30.4004 -5.7998 -41.5996 -15.4004c-19.1006 46.6006 -64.9004 79.4004 -118.4 79.4004c-70.7002 0 -128 -57.2998 -128 -128v-1.09961c-54.2998 -7.80078 -96 -54.5 -96 -110.9c0 -61.9004 50.0996 -112 112 -112h336zM383.6 192.4l16.9004 -16.9004
c4.7002 -4.7002 4.7002 -12.2998 0 -17l-104 -104c-4.7002 -4.7002 -12.2998 -4.7002 -17 0l-104 104c-4.7002 4.7002 -4.7002 12.2998 0 17l16.9004 16.9004c4.7998 4.69922 12.3994 4.69922 17.0996 -0.100586l54.5 -55.7998v139.5c0 6.59961 5.40039 12 12 12h24
c6.59961 0 12 -5.40039 12 -12v-139.5l54.5 55.7998c4.7002 4.7998 12.4004 4.7998 17.0996 0.100586z" />
    <glyph glyph-name="cloud-upload" unicode="&#xf0ee;" 
d="M543.7 247.9c57.0996 -20.1006 96.2998 -74.1006 96.2998 -135.9c0 -79.5 -64.5 -144 -144 -144h-336c-88.4004 0 -160 71.5996 -160 160c0 65.5996 39.9004 123.9 99.7002 148.2c16.7998 80.0996 87.7002 139.8 172.3 139.8c56.0996 0 105.7 -26.2998 137.6 -66.2998
c7.30078 1.5 14.8008 2.2998 22.4004 2.2998c59.4004 0 107.7 -46.0996 111.7 -104.1zM496 16c53 0 96 43 96 96s-43 96 -96 96c-2.90039 0 -5.90039 -0.0996094 -8.7998 -0.400391c5.59961 9.5 8.7998 20.6006 8.7998 32.4004c0 35.2998 -28.7002 64 -64 64
c-15.9004 0 -30.4004 -5.7998 -41.5996 -15.4004c-19.1006 46.6006 -64.9004 79.4004 -118.4 79.4004c-70.7002 0 -128 -57.2998 -128 -128v-1.09961c-54.2998 -7.80078 -96 -54.5 -96 -110.9c0 -61.9004 50.0996 -112 112 -112h336zM296.5 297.5l104 -104
c4.7002 -4.7002 4.7002 -12.2998 0 -17l-16.9004 -16.9004c-4.7998 -4.69922 -12.3994 -4.69922 -17.0996 0.100586l-54.5 55.7998v-139.5c0 -6.59961 -5.40039 -12 -12 -12h-24c-6.59961 0 -12 5.40039 -12 12v139.5l-54.5 -55.7998
c-4.7002 -4.7998 -12.4004 -4.7998 -17.0996 -0.100586l-16.9004 16.9004c-4.7002 4.7002 -4.7002 12.2998 0 17l104 104c4.7002 4.7002 12.2998 4.7002 17 0z" />
    <glyph glyph-name="user-md" unicode="&#xf0f0;" horiz-adv-x="448" 
d="M224 160c-79.5 0 -144 64.5 -144 144s64.5 144 144 144s144 -64.5 144 -144s-64.5 -144 -144 -144zM224 400c-52.9004 0 -96 -43.0996 -96 -96s43.0996 -96 96 -96s96 43.0996 96 96s-43.0996 96 -96 96zM313.6 144c74.2002 0 134.4 -60.2002 134.2 -134.4v-49.5996
c0 -13.2998 -10.7002 -24 -24 -24s-24 10.7002 -24 24v49.5c0 45.5 -35.3994 82.5 -80 85.7998v-41.7002c27.5 -7.09961 48 -31.8994 48 -61.5996v-32c0 -4.2002 -1.7002 -8.2998 -4.7002 -11.2998l-10.2998 -10.2998c-3.09961 -3.10059 -8.2002 -3.10059 -11.2998 0
l-11.2998 11.2998c-3.10059 3.09961 -3.10059 8.2002 0 11.2998l5.7002 5.7002v23.5996c0 15.9004 -10.9004 30.7002 -26.6006 33.2998c-20 3.2002 -37.3994 -12.1992 -37.3994 -31.5996v-25.2998l5.69922 -5.7002c3.10059 -3.09961 3.10059 -8.2002 0 -11.2998
l-11.2998 -11.2998c-3.09961 -3.10059 -8.2002 -3.10059 -11.2998 0l-10.2998 10.2998c-3 3 -4.7002 7.09961 -4.7002 11.2998v29.2002c0 30.0996 19.7998 57.0996 48 64.5996v36.2998c-20.7998 -6.2998 -42.2002 -10.0996 -64 -10.0996
c-21.7002 0 -43.2002 3.7998 -64 10.0996v-44.6992c23.0996 -6.90039 40 -28.1006 40 -53.4004c0 -30.9004 -25.0996 -56 -56 -56s-56 25.0996 -56 56c0 25.2998 16.9004 46.5 40 53.4004v50c-44.5996 -3.40039 -80 -40.3008 -80 -85.8008v-49.5996
c0 -13.2998 -10.7002 -24 -24 -24s-24 10.7002 -24 24v49.5996c0 74.2002 60.2002 134.4 134.4 134.4c11 0 21.7998 -2.59961 32.1992 -6.2002c18 -6.2998 37.3008 -9.7998 57.4004 -9.7998s39.4004 3.5 57.4004 9.7998c10.3994 3.60059 21.1992 6.2002 32.1992 6.2002z
M168 -8c0 13.2998 -10.7002 24 -24 24s-24 -10.7002 -24 -24s10.7002 -24 24 -24s24 10.7002 24 24z" />
    <glyph glyph-name="sliders-h" unicode="&#xf1de;" horiz-adv-x="512" 
d="M496 376c8.7998 0 16 -7.2002 16 -16v-16c0 -8.7998 -7.2002 -16 -16 -16h-208v-24c0 -8.7998 -7.2002 -16 -16 -16h-32c-8.7998 0 -16 7.2002 -16 16v24h-208c-8.7998 0 -16 7.2002 -16 16v16c0 8.7998 7.2002 16 16 16h208v24c0 8.7998 7.2002 16 16 16h32
c8.7998 0 16 -7.2002 16 -16v-24h208zM496 56c8.7998 0 16 -7.2002 16 -16v-16c0 -8.7998 -7.2002 -16 -16 -16h-336v-24c0 -8.7998 -7.2002 -16 -16 -16h-32c-8.7998 0 -16 7.2002 -16 16v24h-80c-8.7998 0 -16 7.2002 -16 16v16c0 8.7998 7.2002 16 16 16h80v24
c0 8.7998 7.2002 16 16 16h32c8.7998 0 16 -7.2002 16 -16v-24h336zM496 216c8.7998 0 16 -7.2002 16 -16v-16c0 -8.7998 -7.2002 -16 -16 -16h-80v-24c0 -8.7998 -7.2002 -16 -16 -16h-32c-8.7998 0 -16 7.2002 -16 16v24h-336c-8.7998 0 -16 7.2002 -16 16v16
c0 8.7998 7.2002 16 16 16h336v24c0 8.7998 7.2002 16 16 16h32c8.7998 0 16 -7.2002 16 -16v-24h80z" />
    <glyph glyph-name="user-secret" unicode="&#xf21b;" horiz-adv-x="448" 
d="M383.9 139.7c38.2998 -23.7002 64.0996 -65.7002 64.0996 -114.101v-44.7998c0 -24.7002 -20.0996 -44.7998 -44.7998 -44.7998h-358.4c-24.7002 0 -44.7998 20.0996 -44.7998 44.7998v44.7998c0 49.7002 27.2998 92.6006 67.4004 115.9l-25.8008 60.2002
c-4.5 10.5996 3.2002 22.2998 14.7002 22.2998h32.5c-5.2998 15.0996 -8.7998 31.0996 -8.7998 48c0 6.59961 0.599609 13 1.59961 19.4004c-30.6992 7.59961 -49.5996 17.5996 -49.5996 28.5996c0 13.2998 27.2998 25.0996 70 33.0996
c9.2002 32.8008 27.0996 65.8008 40.5996 82.8008c6.30078 7.89941 15.6006 12.1992 25.2002 12.1992c4.90039 0 9.7002 -1.09961 14.2998 -3.39941c29.6006 -14.7998 32.4004 -17.2002 41.9004 -17.2002s12 2.2002 41.7998 17.0996
c4.60059 2.30078 9.5 3.40039 14.2998 3.40039c9.60059 0 19 -4.2998 25.2002 -12.2002c13.6006 -17 31.4004 -50 40.6006 -82.7998c42.7998 -7.90039 70.0996 -19.7002 70.0996 -33c0 -11 -18.9004 -21 -49.5996 -28.5996
c0.899414 -6.30078 1.59961 -12.8008 1.59961 -19.4004c0 -16.9004 -3.40039 -32.9004 -8.7998 -48h33.5996c11.2998 0 19 -11.2002 15 -21.7002zM173 395.5c-19 -30.4004 -25.7002 -59.0996 -27.7002 -66.2002c21.9004 -2.2998 48.1006 -3.89941 78.7002 -3.89941
s56.9004 1.5 78.7002 3.89941c-2 7 -8.7002 35.7998 -27.7002 66.2002c-16.2002 -8.09961 -29.2002 -16 -51 -16c-22 0 -34.7998 7.90039 -51 16zM183.5 -16l24.5 104l-27 47.2998c-24.7998 7.7998 -46.5996 21.7998 -63.5996 40.7002h-12.6006l23.5 -54.7998
l-36.7998 -21.2998c-27.2998 -15.7002 -43.5 -43.5 -43.5 -74.3008v-41.5996h135.5zM127.9 271.9c0 -52.9004 43.0996 -96 96 -96c52.8994 0 96 43.0996 96 96v0.299805c-0.100586 -0.100586 -5.5 -3.2002 -6.30078 -5.7002c-3.7998 -11.9004 -7 -24.5996 -16.5 -33.4004
c-10.0996 -9.39941 -48 -22.3994 -64 25c-2.89941 8.40039 -15.5 8.40039 -18.2998 0c-17 -50.0996 -56 -32.3994 -64 -25c-9.5 8.80078 -12.5996 21.5 -16.5 33.4004c-0.799805 2.59961 -6.2002 5.7002 -6.2998 5.7998c0 -0.0996094 0 -0.200195 -0.0996094 -0.399414z
M264.5 -16h135.4v41.7002c0 29.7998 -15.4004 57.2002 -41.3008 73.2002l-33.7998 20.7998l21.5 56.2998h-15.7002c-17 -18.7998 -38.7998 -32.9004 -63.5996 -40.7002l-27 -47.2998z" />
    <glyph glyph-name="user-plus" unicode="&#xf234;" 
d="M224 160c-79.5 0 -144 64.5 -144 144s64.5 144 144 144s144 -64.5 144 -144s-64.5 -144 -144 -144zM224 400c-52.9004 0 -96 -43.0996 -96 -96s43.0996 -96 96 -96s96 43.0996 96 96s-43.0996 96 -96 96zM313.6 144c74.2002 0 134.4 -60.2002 134.4 -134.4v-25.5996
c0 -26.5 -21.5 -48 -48 -48h-352c-26.5 0 -48 21.5 -48 48v25.5996c0 74.2002 60.2002 134.4 134.4 134.4c28.7998 0 42.5 -16 89.5996 -16s60.9004 16 89.5996 16zM400 -16v25.5996c0 47.6006 -38.7998 86.4004 -86.4004 86.4004c-14.6992 0 -37.8994 -16 -89.5996 -16
c-51.2998 0 -75 16 -89.5996 16c-47.6006 0 -86.4004 -38.7998 -86.4004 -86.4004v-25.5996h352zM624 232c8.7998 0 16 -7.2002 16 -16v-16c0 -8.7998 -7.2002 -16 -16 -16h-72v-72c0 -8.7998 -7.2002 -16 -16 -16h-16c-8.7998 0 -16 7.2002 -16 16v72h-72
c-8.7998 0 -16 7.2002 -16 16v16c0 8.7998 7.2002 16 16 16h72v72c0 8.7998 7.2002 16 16 16h16c8.7998 0 16 -7.2002 16 -16v-72h72z" />
    <glyph glyph-name="user-times" unicode="&#xf235;" 
d="M593.9 208l41.3994 -41.4004c6.2002 -6.19922 6.2002 -16.3994 0 -22.5996l-11.2998 -11.2998c-6.2002 -6.2002 -16.4004 -6.2002 -22.5996 0l-41.4004 41.3994l-41.4004 -41.3994c-6.19922 -6.2002 -16.3994 -6.2002 -22.5996 0l-11.2998 11.2998
c-6.2002 6.2002 -6.2002 16.4004 0 22.5996l41.3994 41.4004l-41.3994 41.4004c-6.2002 6.19922 -6.2002 16.3994 0 22.5996l11.2998 11.2998c6.2002 6.2002 16.4004 6.2002 22.5996 0l41.4004 -41.3994l41.4004 41.3994c6.19922 6.2002 16.3994 6.2002 22.5996 0
l11.2998 -11.2998c6.2002 -6.2002 6.2002 -16.4004 0 -22.5996zM224 160c-79.5 0 -144 64.5 -144 144s64.5 144 144 144s144 -64.5 144 -144s-64.5 -144 -144 -144zM224 400c-52.9004 0 -96 -43.0996 -96 -96s43.0996 -96 96 -96s96 43.0996 96 96s-43.0996 96 -96 96z
M313.6 144c74.2002 0 134.4 -60.2002 134.4 -134.4v-25.5996c0 -26.5 -21.5 -48 -48 -48h-352c-26.5 0 -48 21.5 -48 48v25.5996c0 74.2002 60.2002 134.4 134.4 134.4c28.7998 0 42.5 -16 89.5996 -16c47.2002 0 60.7998 16 89.5996 16zM400 -16v25.5996
c0 47.6006 -38.7998 86.4004 -86.4004 86.4004c-14.6992 0 -37.8994 -16 -89.5996 -16c-51.2998 0 -75 16 -89.5996 16c-47.6006 0 -86.4004 -38.7998 -86.4004 -86.4004v-25.5996h352z" />
    <glyph glyph-name="cloud-download-alt" unicode="&#xf381;" 
d="M543.7 247.9c57.0996 -20.1006 96.2998 -74.1006 96.2998 -135.9c0 -79.5 -64.5 -144 -144 -144h-336c-88.4004 0 -160 71.5996 -160 160c0 65.5996 39.9004 123.9 99.7002 148.2c16.7998 80.0996 87.7002 139.8 172.3 139.8c56.0996 0 105.7 -26.2998 137.6 -66.2998
c7.30078 1.5 14.8008 2.2998 22.4004 2.2998c59.4004 0 107.7 -46.0996 111.7 -104.1zM496 16c53 0 96 43 96 96s-43 96 -96 96c-2.90039 0 -5.90039 -0.0996094 -8.7998 -0.400391c5.59961 9.5 8.7998 20.6006 8.7998 32.4004c0 35.2998 -28.7002 64 -64 64
c-15.9004 0 -30.4004 -5.7998 -41.5996 -15.4004c-19.1006 46.6006 -64.9004 79.4004 -118.4 79.4004c-70.7002 0 -128 -57.2998 -128 -128v-1.09961c-54.2998 -7.80078 -96 -54.5 -96 -110.9c0 -61.9004 50.0996 -112 112 -112h336zM387 192
c10.7002 0 16.0996 -12.9004 8.5 -20.5l-99 -99c-4.7002 -4.7002 -12.2998 -4.7002 -17 0l-99 99c-7.5 7.59961 -2.2002 20.5 8.5 20.5h67v84c0 6.59961 5.40039 12 12 12h40c6.59961 0 12 -5.40039 12 -12v-84h67z" />
    <glyph glyph-name="cloud-upload-alt" unicode="&#xf382;" 
d="M395.5 180.5c7.59961 -7.59961 2.2002 -20.5 -8.5 -20.5h-67v-84c0 -6.59961 -5.40039 -12 -12 -12h-40c-6.59961 0 -12 5.40039 -12 12v84h-67c-10.7002 0 -16.0996 12.9004 -8.5 20.5l99 99c4.7002 4.7002 12.2998 4.7002 17 0zM543.7 247.9
c57.0996 -20.1006 96.2998 -74.1006 96.2998 -135.9c0 -79.5 -64.5 -144 -144 -144h-336c-88.4004 0 -160 71.5996 -160 160c0 65.5996 39.9004 123.9 99.7002 148.2c16.7998 80.0996 87.7002 139.8 172.3 139.8c56.0996 0 105.7 -26.2998 137.6 -66.2998
c7.30078 1.5 14.8008 2.2998 22.4004 2.2998c59.4004 0 107.7 -46.0996 111.7 -104.1zM496 16c53 0 96 43 96 96s-43 96 -96 96c-2.90039 0 -5.90039 -0.0996094 -8.7998 -0.400391c5.59961 9.5 8.7998 20.6006 8.7998 32.4004c0 35.2998 -28.7002 64 -64 64
c-15.9004 0 -30.4004 -5.7998 -41.5996 -15.4004c-19.1006 46.6006 -64.9004 79.4004 -118.4 79.4004c-70.7002 0 -128 -57.2998 -128 -128v-1.09961c-54.2998 -7.80078 -96 -54.5 -96 -110.9c0 -61.9004 50.0996 -112 112 -112h336z" />
    <glyph glyph-name="sliders-v" unicode="&#xf3f1;" horiz-adv-x="448" 
d="M272 96c8.7998 0 16 -7.2002 16 -16v-32c0 -8.7998 -7.2002 -16 -16 -16h-24v-80c0 -8.7998 -7.2002 -16 -16 -16h-16c-8.7998 0 -16 7.2002 -16 16v80h-24c-8.7998 0 -16 7.2002 -16 16v32c0 8.7998 7.2002 16 16 16h24v336c0 8.7998 7.2002 16 16 16h16
c8.7998 0 16 -7.2002 16 -16v-336h24zM112 352c8.7998 0 16 -7.2002 16 -16v-32c0 -8.7998 -7.2002 -16 -16 -16h-24v-336c0 -8.7998 -7.2002 -16 -16 -16h-16c-8.7998 0 -16 7.2002 -16 16v336h-24c-8.7998 0 -16 7.2002 -16 16v32c0 8.7998 7.2002 16 16 16h24v80
c0 8.7998 7.2002 16 16 16h16c8.7998 0 16 -7.2002 16 -16v-80h24zM432 224c8.7998 0 16 -7.2002 16 -16v-32c0 -8.7998 -7.2002 -16 -16 -16h-24v-208c0 -8.7998 -7.2002 -16 -16 -16h-16c-8.7998 0 -16 7.2002 -16 16v208h-24c-8.7998 0 -16 7.2002 -16 16v32
c0 8.7998 7.2002 16 16 16h24v208c0 8.7998 7.2002 16 16 16h16c8.7998 0 16 -7.2002 16 -16v-208h24z" />
    <glyph glyph-name="user-alt" unicode="&#xf406;" horiz-adv-x="512" 
d="M384 112c70.7002 0 128 -57.2998 128 -128v-16c0 -17.7002 -14.2998 -32 -32 -32h-448c-17.7002 0 -32 14.2998 -32 32v16c0 70.7002 57.2998 128 128 128c40.7002 0 47.5996 1.5 72.2002 -6.7998c17.5 -5.90039 36.2998 -9.2002 55.7998 -9.2002
s38.2998 3.2998 55.7998 9.2002c24.6006 8.2998 31.6006 6.7998 72.2002 6.7998zM464 -16c0 44.0996 -35.9004 80 -80 80c-41.0996 0 -41 1.2002 -56.7998 -4.2002c-23 -7.7998 -47 -11.7998 -71.2002 -11.7998s-48.2002 4 -71.2002 11.7998
c-15.7998 5.2998 -15.7002 4.2002 -56.7998 4.2002c-21.4004 0 -41.5 -8.2998 -56.5996 -23.4004c-15.1006 -15.0996 -23.4004 -35.1992 -23.4004 -56.5996h416zM256 128c-88.4004 0 -160 71.5996 -160 160s71.5996 160 160 160s160 -71.5996 160 -160
s-71.5996 -160 -160 -160zM256 400c-61.7998 0 -112 -50.2002 -112 -112s50.2002 -112 112 -112s112 50.2002 112 112s-50.2002 112 -112 112z" />
    <glyph glyph-name="user-alt-slash" unicode="&#xf4fa;" 
d="M320 400c-37.0996 0 -69.7002 -18.2998 -90.0996 -46.2002l-37.7002 29.5c29.0996 39.1006 75.2998 64.7002 127.8 64.7002c88.4004 0 160 -71.5996 160 -160c0 -38.5 -14.0996 -73.2998 -36.7998 -101l-13.6006 10.7002l-24.0996 18.7998
c16.2998 19.5 26.5 44.2002 26.5 71.5c0 61.7998 -50.2002 112 -112 112zM634 -23c6.90039 -5.5 8 -15.5996 2.5 -22.5l-10 -12.5c-5.5 -6.90039 -15.5996 -8 -22.5 -2.5l-514.7 402.4l-39 30.5l-44.2998 34.5996c-6.90039 5.5 -8 15.5996 -2.5 22.5l10 12.5
c5.5 6.90039 15.5996 8 22.5 2.5l77.4004 -60.5l2.19922 -1.7002l284.4 -222.399l79.5 -62.1006zM112 -15.9004h357.2l61.3994 -48h-434.6c-17.7002 0 -32 14.3008 -32 32v16c0 70.7002 57.2998 128 128 128h36.9004c12.0996 0 23.8994 -2.89941 35.3994 -6.7998
c17.5 -5.89941 36.2998 -9.2002 55.7998 -9.2002c1.80078 0 3.5 0.300781 5.30078 0.400391l51.5 -40.2998c-18.7002 -5 -37.6006 -8.2002 -56.9004 -8.2002c-24.2002 0 -48.2002 4 -71.2002 11.7998c-8.5 2.90039 -14.8994 4.2002 -20 4.2002h-36.7998
c-21.4004 0 -41.5 -8.2998 -56.5996 -23.4004c-15.1006 -15.0996 -23.4004 -35.0996 -23.4004 -56.5z" />
    <glyph glyph-name="user-astronaut" unicode="&#xf4fb;" horiz-adv-x="448" 
d="M358.6 119.2c52 -18.5 89.4004 -67.2998 89.4004 -125.601v-33.5996c0 -13.2998 -10.7002 -24 -24 -24s-24 10.7002 -24 24v33.5996c0 47.6006 -38.7998 86.4004 -86.4004 86.4004h-13c-23.5 -10.2002 -49.3994 -16 -76.5996 -16s-53.0996 5.7998 -76.5996 16h-13
c-47.6006 0 -86.4004 -38.7998 -86.4004 -86.4004v-33.5996c0 -13.2998 -10.7002 -24 -24 -24s-24 10.7002 -24 24v33.5996c0 58.3008 37.4004 107.101 89.4004 125.601c-20.5 20.2002 -36.4004 45.0996 -46.2002 72.7998h-11.2002c-8.7998 0 -16 7.2002 -16 16v96
c0 8.7998 7.2002 16 16 16h11.2002c26.2998 74.5 97.2002 128 180.8 128s154.5 -53.5 180.8 -128h11.2002c8.7998 0 16 -7.2002 16 -16v-96c0 -8.7998 -7.2002 -16 -16 -16h-11.2002c-9.7998 -27.7002 -25.7002 -52.5996 -46.2002 -72.7998zM224 112
c79.4004 0 144 64.5996 144 144s-64.5996 144 -144 144s-144 -64.5996 -144 -144s64.5996 -144 144 -144zM304 32c17.7002 0 32 -14.2998 32 -32v-64h-144v48c0 8.7998 -7.2002 16 -16 16s-16 -7.2002 -16 -16v-48h-48v64c0 17.7002 14.2998 32 32 32h160zM272 -32
c8.7998 0 16 7.2002 16 16s-7.2002 16 -16 16s-16 -7.2002 -16 -16s7.2002 -16 16 -16zM288 320c26.5 0 48 -21.5 48 -48v-16c0 -53 -43 -96 -96 -96h-32c-53 0 -96 43 -96 96v16c0 26.5 21.5 48 48 48h128zM204 228l36 12l-36 12l-12 36l-12 -36l-36 -12l36 -12l12 -36z
" />
    <glyph glyph-name="user-check" unicode="&#xf4fc;" 
d="M637 286.9c4 -4.10059 4 -10.7002 0 -14.7002l-129.6 -130.3c-4 -4.10059 -10.6006 -4.10059 -14.6006 0l-73.7998 74.2998c-4 4.09961 -4 10.5996 0 14.7002l19.2002 19.1992c4 4.10059 10.5996 4.10059 14.5996 0l47.4004 -47.6992l103.1 103.699
c4 4.10059 10.6006 4.10059 14.6006 0zM224 160c-79.5 0 -144 64.5 -144 144s64.5 144 144 144s144 -64.5 144 -144s-64.5 -144 -144 -144zM224 400c-52.9004 0 -96 -43.0996 -96 -96s43.0996 -96 96 -96s96 43.0996 96 96s-43.0996 96 -96 96zM313.6 144
c74.2002 0 134.4 -60.2002 134.4 -134.4v-25.5996c0 -26.5 -21.5 -48 -48 -48h-352c-26.5 0 -48 21.5 -48 48v25.5996c0 74.2002 60.2002 134.4 134.4 134.4c28.7998 0 42.5 -16 89.5996 -16c47.2002 0 60.7998 16 89.5996 16zM400 -16v25.5996
c0 47.6006 -38.7998 86.4004 -86.4004 86.4004c-14.6992 0 -37.8994 -16 -89.5996 -16c-51.2998 0 -75 16 -89.5996 16c-47.6006 0 -86.4004 -38.7998 -86.4004 -86.4004v-25.5996h352z" />
    <glyph glyph-name="user-clock" unicode="&#xf4fd;" 
d="M224 160c-79.5 0 -144 64.5 -144 144s64.5 144 144 144s144 -64.5 144 -144s-64.5 -144 -144 -144zM224 400c-52.9004 0 -96 -43.0996 -96 -96s43.0996 -96 96 -96s96 43.0996 96 96s-43.0996 96 -96 96zM48 -16h281.9c10.5 -18.0996 23.8994 -34.2998 39.5 -48h-321.4
c-26.5 0 -48 21.5 -48 48v25.5996c0 74.2002 60.2002 134.4 134.4 134.4c28.7998 0 42.5 -16 89.5996 -16c48 0 59.7002 16.2002 91.0996 15.7998c-5.5 -15.5996 -9.09961 -32.0996 -10.3994 -49.2002c-10.2998 -2.5 -37.7002 -14.5996 -80.7002 -14.5996
c-51.2998 0 -75 16 -89.5996 16c-47.6006 0 -86.4004 -38.7998 -86.4004 -86.4004v-25.5996zM496 224c79.5996 0 144 -64.4004 144 -144s-64.4004 -144 -144 -144s-144 64.4004 -144 144s64.4004 144 144 144zM560 73.7002v12.5996c0 5.2998 -4.40039 9.7002 -9.7002 9.7002
h-38.2998v54.2998c0 5.2998 -4.40039 9.7002 -9.7002 9.7002h-12.5996c-5.2998 0 -9.7002 -4.40039 -9.7002 -9.7002v-76.5996c0 -5.2998 4.40039 -9.7002 9.7002 -9.7002h60.5996c5.2998 0 9.7002 4.40039 9.7002 9.7002z" />
    <glyph glyph-name="user-cog" unicode="&#xf4fe;" 
d="M340.3 -16c13.5 -18.7998 30.2998 -35.0996 49.7002 -48h-342c-26.5 0 -48 21.5 -48 48v25.5996c0 74.2002 60.2002 134.4 134.4 134.4c28.7998 0 42.5 -16 89.5996 -16c45.2998 0 57.5996 14.2002 86.2002 15.5996c-6.2002 -24.3994 -6.2002 -41.6992 -6.10059 -49.1992
c-10.0996 -2.5 -37.5 -14.4004 -80.0996 -14.4004c-51.2998 0 -75 16 -89.5996 16c-47.6006 0 -86.4004 -38.7998 -86.4004 -86.4004v-25.5996h292.3zM224 160c-79.5 0 -144 64.5 -144 144s64.5 144 144 144s144 -64.5 144 -144s-64.5 -144 -144 -144zM224 400
c-52.9004 0 -96 -43.0996 -96 -96s43.0996 -96 96 -96s96 43.0996 96 96s-43.0996 96 -96 96zM610.5 74.7002l25.7998 -14.9004c2.90039 -1.7002 4.2998 -5.2002 3.2998 -8.5c-6.69922 -21.5996 -18.1992 -41.2002 -33.1992 -57.3994
c-2.30078 -2.5 -6.10059 -3.10059 -9 -1.40039l-25.8008 14.9004c-10.8994 -9.30078 -23.3994 -16.5 -36.8994 -21.3008v-29.7998c0 -3.39941 -2.40039 -6.39941 -5.7002 -7.09961c-21.2002 -4.7998 -43.9004 -5 -66.2002 0
c-3.2998 0.700195 -5.7002 3.7002 -5.7002 7.09961v29.7998c-13.5 4.80078 -26 12 -36.8994 21.3008l-25.7998 -14.9004c-3 -1.7002 -6.7002 -1.09961 -9 1.40039c-15 16.2998 -26.5 35.7998 -33.2002 57.3994c-1 3.2998 0.299805 6.7998 3.2998 8.5l25.7998 14.9004
c-2.59961 14.0996 -2.59961 28.5 0 42.5996l-25.7998 14.9004c-2.90039 1.7002 -4.2998 5.2002 -3.2998 8.5c6.7002 21.5996 18.2002 41.2002 33.2002 57.3994c2.2998 2.5 6.09961 3.10059 9 1.40039l25.7998 -14.9004c10.8994 9.30078 23.3994 16.5 36.8994 21.3008
v29.7998c0 3.39941 2.40039 6.39941 5.7002 7.09961c21.2002 4.7998 43.9004 5 66.2002 0c3.2998 -0.700195 5.7002 -3.7002 5.7002 -7.09961v-29.7998c13.5 -4.80078 26 -12 36.8994 -21.3008l25.8008 14.9004c3 1.7002 6.69922 1.09961 9 -1.40039
c15 -16.1992 26.5 -35.7998 33.1992 -57.3994c1 -3.2998 -0.299805 -6.7998 -3.2998 -8.5l-25.7998 -14.9004c2.59961 -14.0996 2.59961 -28.5 0 -42.5996zM496 47.5c26.7998 0 48.5 21.7998 48.5 48.5s-21.7998 48.5 -48.5 48.5s-48.5 -21.7998 -48.5 -48.5
s21.7002 -48.5 48.5 -48.5z" />
    <glyph glyph-name="user-edit" unicode="&#xf4ff;" 
d="M358.9 14.7002l137.899 137.8l71.7002 -71.7002l-137.9 -137.899l-60.8994 -6.80078c-10.1006 -1.19922 -18.7002 7.40039 -17.6006 17.6006zM633 179.1c9.2998 -9.39941 9.2998 -24.5 0.0996094 -33.7998l-41.7998 -41.7998l-71.7998 71.7002l41.7998 41.7998
c9.2998 9.2998 24.5 9.2998 33.7998 0zM223.9 160c-78.3008 0.0996094 -143.801 65.5996 -143.9 143.9c-0.0996094 79.5996 64.5 144.199 144.1 144.1c78.3008 -0.0996094 143.801 -65.5996 143.9 -143.9c0.0996094 -79.5996 -64.5 -144.199 -144.1 -144.1zM219.5 399.9
c-49.2002 -2.30078 -89.0996 -42.1006 -91.4004 -91.4004c-2.59961 -56.5 43.9004 -103 100.4 -100.4c49.2998 2.30078 89.0996 42.2002 91.4004 91.4004c2.59961 56.5 -43.9004 103 -100.4 100.4zM134.4 96c-47.6006 0 -86.4004 -38.7998 -86.4004 -86.4004v-25.5996h259.2
c-3.10059 -27.7002 -4.7002 -33.4004 -0.900391 -48h-258.3c-26.5 0 -48 21.5 -48 48v25.5996c0 74.2002 60.2002 134.4 134.4 134.4c28.7998 0 42.5 -16 89.5996 -16s60.9004 16 89.5996 16c30.1006 0 57.5 -10.2002 79.9004 -26.9004l-34.4004 -34.3994
c-13.2998 8.2998 -28.7998 13.2998 -45.5 13.2998c-14.6992 0 -37.8994 -16 -89.5996 -16c-51.2998 0 -75 16 -89.5996 16z" />
    <glyph glyph-name="user-friends" unicode="&#xf500;" 
d="M480 192c-53 0 -96 43 -96 96s43 96 96 96s96 -43 96 -96s-43 -96 -96 -96zM480 336c-26.5 0 -48 -21.5 -48 -48s21.5 -48 48 -48s48 21.5 48 48s-21.5 48 -48 48zM272.1 172c36.3008 0 71.6006 -16.2002 92.3008 -46.9004
c12.3994 -18.3994 19.5996 -40.5 19.5996 -64.2998v-44.7998c0 -26.5 -21.5 -48 -48 -48h-288c-26.5 0 -48 21.5 -48 48v44.7998c0 23.7998 7.2002 45.9004 19.4004 64.2998c20.6992 30.7002 56 46.9004 92.2998 46.9004c11.8994 0 23.8994 -1.7998 35.5 -5.2998
c14.2002 -4.2998 29.0996 -6.7002 44.7002 -6.7002c15.5996 0 30.5 2.40039 44.6992 6.7002c11.6006 3.59961 23.6006 5.2998 35.5 5.2998zM336 16h0.0996094v44.7998c0 28.9004 -18.3994 53.7002 -44.0996 63.1006c-10.2998 3.7998 -21.5996 3.69922 -31.9004 0
c-22.2998 -7.90039 -45.0996 -11.9004 -68.0996 -11.9004s-45.9004 4 -68 11.9004c-10.2998 3.69922 -21.5996 3.7998 -31.9004 0c-25.6992 -9.5 -44.0996 -34.2002 -44.0996 -63.1006v-44.7998h288zM192 192c-61.9004 0 -112 50.0996 -112 112s50.0996 112 112 112
s112 -50.0996 112 -112s-50.0996 -112 -112 -112zM192 368c-35.2998 0 -64 -28.7002 -64 -64s28.7002 -64 64 -64s64 28.7002 64 64s-28.7002 64 -64 64zM623.7 130.9c10.2998 -15.3008 16.2998 -33.7002 16.2998 -53.6006v-37.2998c0 -22.0996 -17.9004 -40 -40 -40h-185.6
c1 5.2002 1.59961 10.5 1.59961 16v32h176v29.5c0 9.59961 -2.7998 18.7998 -8.09961 26.7002c-7.60059 11.2002 -21.4004 17.8994 -37.1006 17.8994c-17.2998 0 -29.3994 -10 -66.7998 -10c-37.2002 0 -49.5996 10 -66.7998 10
c-3.5 0 -6.90039 -0.399414 -10.2002 -1.09961c-3.40039 7.59961 -7.2998 15 -12 22c-4.7002 6.90039 -10.2002 13 -16 18.9004c12 5.09961 24.9004 8.09961 38.2002 8.09961c27.7998 0 34.7998 -10 66.7998 -10s39 10 66.7998 10c30.2002 0 59.6006 -13.5 76.9004 -39.0996
z" />
    <glyph glyph-name="user-graduate" unicode="&#xf501;" horiz-adv-x="448" 
d="M13.2002 348c-17.6006 5.2002 -17.6006 34.7998 0 40l193.899 57.5c5.60059 1.7002 11.2002 2.5 16.9004 2.5s11.2998 -0.799805 16.9004 -2.5l193.899 -57.5c17.6006 -5.2002 17.6006 -34.7998 0 -40l-77.3994 -23c6.59961 -16.4004 10.5996 -34.2002 10.5996 -53
c0 -79.5 -64.5 -144 -144 -144s-144 64.5 -144 144c0 18.7998 4 36.5996 10.5996 53l-46.5996 13.7998v-30.5c7 -4.2002 12 -11.5 12 -20.2998c0 -8.40039 -4.59961 -15.4004 -11.0996 -19.7002l15.5996 -62.2998c1.7002 -6.90039 -2.09961 -14 -7.59961 -14h-41.8008
c-5.5 0 -9.2998 7.09961 -7.59961 14l15.5996 62.4004c-6.5 4.2998 -11.0996 11.2998 -11.0996 19.6992c0 8.80078 5 16.1006 12 20.3008v37.5996zM224 176c52.9004 0 96 43.0996 96.2002 96c0 14 -3.2998 27.2998 -8.7998 39.2998l-70.4004 -20.8994
c-6.59961 -2 -19 -4.40039 -33.7998 0l-70.4004 20.8994c-5.5 -12 -8.7998 -25.2002 -8.7998 -39.2998c0 -52.9004 43.0996 -96 96 -96zM220.8 399.5l-106.3 -31.5l106.2 -31.5c2.2998 -0.700195 4.39941 -0.599609 6.5 0l106.3 31.5l-106.2 31.5
c-3.2002 0.900391 -5.5 0.299805 -6.5 0zM319.4 127.4c71.5 -3.10059 128.6 -61.6006 128.6 -133.801v-9.59961c0 -26.5 -21.5 -48 -48 -48h-352c-26.5 0 -48 21.5 -48 48v9.59961c0 72.2002 57.0996 130.7 128.6 133.801l95.4004 -79.4004zM200 -16v21.5l-86 71.5996
c-38.0996 -9.09961 -66 -43.0996 -66 -83.5v-9.59961h152zM400 -16v9.59961c0 40.4004 -27.9004 74.4004 -66 83.5l-86 -71.5996v-21.5h152z" />
    <glyph glyph-name="user-minus" unicode="&#xf503;" 
d="M624 232c8.7998 0 16 -7.2002 16 -16v-16c0 -8.7998 -7.2002 -16 -16 -16h-192c-8.7998 0 -16 7.2002 -16 16v16c0 8.7998 7.2002 16 16 16h192zM313.6 144c74.2002 0 134.4 -60.2002 134.4 -134.4v-25.5996c0 -26.5 -21.5 -48 -48 -48h-352c-26.5 0 -48 21.5 -48 48
v25.5996c0 74.2002 60.2002 134.4 134.4 134.4c28.7998 0 42.5 -16 89.5996 -16c47.2002 0 60.7998 16 89.5996 16zM400 -16v25.5996c0 47.6006 -38.7998 86.4004 -86.4004 86.4004c-14.6992 0 -37.8994 -16 -89.5996 -16c-51.2998 0 -75 16 -89.5996 16
c-47.6006 0 -86.4004 -38.7998 -86.4004 -86.4004v-25.5996h352zM224 160c-79.5 0 -144 64.5 -144 144s64.5 144 144 144s144 -64.5 144 -144s-64.5 -144 -144 -144zM224 400c-52.9004 0 -96 -43.0996 -96 -96s43.0996 -96 96 -96s96 43.0996 96 96s-43.0996 96 -96 96z" />
    <glyph glyph-name="user-ninja" unicode="&#xf504;" horiz-adv-x="448" 
d="M32 240c0 33.4004 17.0996 62.7998 43.0996 80c-26 17.2002 -43.0996 46.5996 -43.0996 80c25.9004 0 48.9004 -10.7002 66.0996 -27.4004c24.5 44.7002 71.4004 75.4004 125.9 75.4004c79.5 0 144 -64.5 144 -144s-64.5 -144 -144 -144
c-63.5 0 -116.8 41.4004 -135.9 98.4004c-15.7998 -11.5 -35.0996 -18.4004 -56.0996 -18.4004zM224 400c-35.4004 0 -66 -19.4004 -82.5996 -48h165.199c-16.5996 28.5996 -47.1992 48 -82.5996 48zM320 304h-192c0 -52.9004 43.0996 -96 96 -96s96 43.0996 96 96z
M325.4 158.8c68.5996 -6.09961 122.6 -63 122.6 -133.2v-41.5996c0 -26.5 -21.5 -48 -48 -48h-352c-26.5 0 -48 21.5 -48 48v41.5996c0 70.2002 54 127.101 122.6 133.2l101.4 -78.7998zM200 -16v53.7998l-90.0996 70
c-36.2002 -10.3994 -61.9004 -43.2998 -61.9004 -82.2002v-41.5996h152zM400 -16v41.7002c0 38.8994 -25.5996 71.7002 -61.9004 82.2002l-90.0996 -70v-53.9004h152z" />
    <glyph glyph-name="user-shield" unicode="&#xf505;" 
d="M622.3 176.9c10.7002 -4.2002 17.7002 -14 17.7002 -24.9004c0 -124.5 -81.5996 -193.9 -132.9 -213.9c-4.19922 -1.59961 -12.5996 -3.69922 -22.1992 0c-64.2002 25.1006 -132.9 102.301 -132.9 213.9c0 10.9004 7 20.7002 17.7002 24.9004l115.2 45
c9.59961 3.69922 18.0996 1.59961 22.1992 0zM496 -14.4004c34.5996 16.4004 89.9004 64.7002 95.5 151.801l-95.5 37.2998v-189.101zM356.2 -16c12.8994 -18.2998 27.5996 -34.2998 43.0996 -48h-351.3c-26.5 0 -48 21.5 -48 48v25.5996
c0 74.2002 60.2002 134.4 134.3 134.4c28.7998 0 42.5 -16 89.6006 -16c40.8994 0 54.7998 11.7998 80.3994 15c0.5 -16.5 2.2002 -32.2998 5.10059 -47.5c-14.5 -2 -38.3008 -15.5 -85.4004 -15.5c-51.2998 0 -75 16 -89.5996 16
c-47.6006 0 -86.4004 -38.7998 -86.4004 -86.4004v-25.5996h308.2zM224 160c-79.5 0 -144 64.5 -144 144s64.5 144 144 144s144 -64.5 144 -144s-64.5 -144 -144 -144zM224 400c-52.9004 0 -96 -43.0996 -96 -96s43.0996 -96 96 -96s96 43.0996 96 96s-43.0996 96 -96 96z
" />
    <glyph glyph-name="user-slash" unicode="&#xf506;" 
d="M634 -23c6.90039 -5.5 8 -15.5996 2.5 -22.5l-10 -12.5c-5.5 -6.90039 -15.5996 -8 -22.5 -2.5l-598 467.5c-6.90039 5.5 -8 15.5996 -2.5 22.5l10 12.5c5.5 6.90039 15.5996 8 22.5 2.5zM320 400c-36.5 0 -67.9004 -20.7002 -84.2002 -50.7998l-38.2002 29.8994
c25.4004 41.2002 70.5 68.9004 122.4 68.9004c79.5 0 144 -64.5 144 -144c0 -39.2998 -15.9004 -74.7998 -41.4004 -100.8l-38.3994 30c19.3994 17.5 31.7998 42.7002 31.7998 70.7998c0 52.9004 -43.0996 96 -96 96zM144 -16h325.2l52 -40.7002
c-7.2998 -4.5 -15.9004 -7.2998 -25.2002 -7.2998h-352c-26.5 0 -48 21.5 -48 48v25.5996c0 74.2002 60.2002 134.4 134.4 134.301c11 0 21.7998 -2.60059 32.1992 -6.2002c4.80078 -1.60059 9.90039 -2.5 14.8008 -3.7998l66.3994 -51.9004
c-7.89941 -0.900391 -15.7998 -2 -23.7998 -2c-24.9004 0 -49.5 4.09961 -73.2002 12.4004c-6.89941 2.39941 -12.2002 3.59961 -16.3994 3.59961c-47.6006 0 -86.4004 -38.7998 -86.4004 -86.4004v-25.5996z" />
    <glyph glyph-name="user-tag" unicode="&#xf507;" 
d="M630.6 83.0996c12.5 -12.5 12.5 -32.6992 -0.0996094 -45.1992l-92.5 -92.5c-12.5 -12.5 -32.7998 -12.5 -45.2998 0l-90.2998 90.1992c-12 12 -18.7002 28.2002 -18.7002 45.2002v79.2002c0 17.7002 14.2998 32 32 32h79.2998c17 0 33.2998 -6.7002 45.2998 -18.7002z
M447.8 104.1c13.2998 0 24 10.8008 24 24c0 13.3008 -10.7002 24 -24 24s-24 -10.6992 -24 -24c0 -13.2998 10.7002 -24 24 -24zM48 -15.7998v-0.100586h338.2l40.0996 -40.0996c-7.59961 -5 -16.5996 -7.90039 -26.2998 -7.90039h-352c-26.5 0 -48 21.5 -48 48v25.6006
c0 74.2998 60.2002 134.399 134.4 134.399c28.7998 0 42.5 -16 89.5996 -16s60.9004 16 89.5996 16c7.60059 0 14.9004 -1 22.2002 -2.19922v-49c-7.09961 2 -14.5 3.2998 -22.2002 3.2998c-14.6992 0 -37.8994 -16 -89.5996 -16c-51.2998 0 -75 16 -89.5996 16
c-47.6006 0 -86.4004 -38.7998 -86.4004 -86.4004v-25.5996zM224 160.1c-79.5 0 -144 64.4004 -144 143.9c0 79.5996 64.5 144 144 144s144 -64.4004 144 -143.9s-64.5 -144 -144 -144zM224 400c-52.9004 0 -96 -43 -96 -96c0 -52.9004 43.0996 -96 96 -96s96 43.0996 96 96
c0 53 -43.0996 96 -96 96z" />
    <glyph glyph-name="user-tie" unicode="&#xf508;" horiz-adv-x="448" 
d="M224 160c-79.5 0 -144 64.5 -144 144s64.5 144 144 144s144 -64.5 144 -144s-64.5 -144 -144 -144zM224 400c-52.9004 0 -96 -43.0996 -96 -96s43.0996 -96 96 -96s96 43.0996 96 96s-43.0996 96 -96 96zM315.9 143.8c73.1992 -1.2998 132.1 -60.7998 132.1 -134.2
v-25.5996c0 -26.5 -21.5 -48 -48 -48h-352c-26.5 0 -48 21.5 -48 48v25.5996c0 73.4004 58.9004 132.9 132 134.2l56.5 -154.5l19.5 82.7002l-32 56h96l-32 -56l19.4004 -82.7002zM96 -16h43.4004l-38.4004 105c-31.0996 -13.2002 -53 -44 -53 -79.4004v-25.5996h48z
M400 -16v25.5996c0 35.4004 -22 66.2002 -53 79.4004l-38.2998 -105h91.2998z" />
    <glyph glyph-name="users-cog" unicode="&#xf509;" 
d="M315.3 192.5c-59.5996 2.5 -107.3 51.2002 -107.3 111.5c0 61.9004 50.0996 112 112 112c60.2998 0 109 -47.7002 111.4 -107.4c-19 -6.69922 -36.5 -16.3994 -52.2002 -28.3994c3 7.39941 4.7002 15.3994 4.7002 23.7998c0 35.2998 -28.7002 64 -64 64
c-35.3008 0 -64 -28.7002 -64 -64s28.6992 -64 64 -64c8.39941 0 16.3994 1.7002 23.7998 4.7002c-12 -15.7002 -21.6006 -33.2002 -28.4004 -52.2002zM96 224c-44.2002 0 -80 35.7998 -80 80s35.7998 80 80 80s80 -35.7998 80 -80s-35.7998 -80 -80 -80zM96 336
c-17.5996 0 -32 -14.4004 -32 -32s14.4004 -32 32 -32s32 14.4004 32 32s-14.4004 32 -32 32zM340.3 16c13.5 -18.7998 30.2998 -35.0996 49.7002 -48h-214c-26.5 0 -48 21.5 -48 48v44.7998c0 63.6006 51.5996 115.2 115.2 115.2c5.5 0 10.7998 -1.2998 15.8994 -3.40039
c14.9004 -6.2998 31.2002 -9.69922 48 -11.1992c-4.2998 -24.6006 -3 -39.3008 -2.2998 -48.6006c-21.5 1.60059 -42.7998 6.60059 -63.3994 15.2002c-36.2002 -1 -65.4004 -30.7998 -65.4004 -67.2002v-44.7998h164.3zM154.8 177.7
c-13.3994 -10.1006 -25.2002 -22.2002 -34.5 -36.2002c-3.7998 1.40039 -7.89941 2.5 -12.2998 2.5h-24c-19.7998 0 -36 -16.2002 -36 -36c0 -13.2002 -10.7998 -24 -24 -24s-24 10.7998 -24 24c0 46.2998 37.7002 84 84 84h24c17.2998 0 33.4004 -5.2998 46.7998 -14.2998z
M610.5 106.7l25.7998 -14.9004c2.90039 -1.7002 4.2998 -5.2002 3.2998 -8.5c-6.69922 -21.5996 -18.1992 -41.2002 -33.1992 -57.3994c-2.30078 -2.5 -6.10059 -3.10059 -9 -1.40039l-25.8008 14.9004c-10.8994 -9.30078 -23.3994 -16.5 -36.8994 -21.3008v-29.7998
c0 -3.39941 -2.40039 -6.39941 -5.7002 -7.09961c-21.2002 -4.7998 -43.9004 -5 -66.2002 0c-3.2998 0.700195 -5.7002 3.7002 -5.7002 7.09961v29.7998c-13.5 4.80078 -26 12 -36.8994 21.3008l-25.7998 -14.9004c-3 -1.7002 -6.7002 -1.09961 -9 1.40039
c-15 16.2998 -26.5 35.7998 -33.2002 57.3994c-1 3.2998 0.299805 6.7998 3.2998 8.5l25.7998 14.9004c-2.59961 14.0996 -2.59961 28.5 0 42.5996l-25.7998 14.9004c-2.90039 1.7002 -4.2998 5.2002 -3.2998 8.5c6.7002 21.5996 18.2002 41.2002 33.2002 57.3994
c2.2998 2.5 6.09961 3.10059 9 1.40039l25.7998 -14.9004c10.8994 9.30078 23.3994 16.5 36.8994 21.3008v29.7998c0 3.39941 2.40039 6.39941 5.7002 7.09961c21.2002 4.7998 43.9004 5 66.2002 0c3.2998 -0.700195 5.7002 -3.7002 5.7002 -7.09961v-29.7998
c13.5 -4.80078 26 -12 36.8994 -21.3008l25.8008 14.9004c3 1.7002 6.69922 1.09961 9 -1.40039c15 -16.1992 26.5 -35.7998 33.1992 -57.3994c1 -3.2998 -0.299805 -6.7998 -3.2998 -8.5l-25.7998 -14.9004c2.59961 -14.0996 2.59961 -28.5 0 -42.5996zM496 79.5
c26.7998 0 48.5 21.7998 48.5 48.5s-21.7998 48.5 -48.5 48.5s-48.5 -21.7998 -48.5 -48.5s21.7002 -48.5 48.5 -48.5z" />
  </font>
</defs>
</svg>
